#TITLE:We Are Pop Candy;
#SUBTITLE:;
#ARTIST:Hatsune Miku;
#TITLETRANSLIT:;
#SUBTITLETRANSLIT:;
#ARTISTTRANSLIT:;
#CREDIT:;
#BANNER:Hatsune Miku - We Are Pop Candy-banner.jpg;
#BACKGROUND:Hatsune Miku - We Are Pop Candy-bg.jpg;
#LYRICSPATH:Hatsune Miku - We Are Pop Candy.lrc;
#CDTITLE:CDTitle.png;
#MUSIC:Hatsune Miku - We Are Pop Candy.ogg;
#OFFSET:0.780;
#SAMPLESTART:8.800;
#SAMPLELENGTH:12.000;
#SELECTABLE:YES;
#BPMS:0.000=125.000;
#STOPS:;
#BGCHANGES:;
// cache tags:
#FIRSTBEAT:4.000;
#LASTBEAT:220.000;
#SONGFILENAME:songs/Vocaloid Party/Hatsune Miku - We Are Pop Candy/Hatsune Miku - We Are Pop Candy.sm;
#HASMUSIC:1;
#HASBANNER:1;
#MUSICLENGTH:107.441;
// end cache tags

//---------------dance-single - ----------------
#NOTES:
     dance-single:
     :
     Challenge:
     9:
     0.657,0.715,0.503,0.298,0.400,408.000,54.000,32.000,3.000,0.000:
0000
0000
0000
0000
,
2000
0000
0000
0010
0000
0000
3001
0000
2000
0000
0000
0010
0000
0000
3001
0000
,
0002
0000
0000
1000
0000
0000
0103
0000
0002
0000
0000
1000
0000
0000
0103
0000
,
1000
0000
0000
0001
0100
0000
0010
0000
1000
0000
0000
0001
0100
0000
0010
0000
,
1000
0100
0010
0001
1000
0100
0010
0001
1000
0100
1000
0001
0100
0010
0100
0000
,
0001
0000
0000
0000
1010
0000
0000
0001
0000
0000
0010
0000
0100
0000
2000
0000
,
3020
0130
0100
0010
1000
0001
0010
0001
,
0100
0000
0000
0000
0110
0000
0000
1000
0000
0000
0010
0000
0010
0000
0000
0000
,
0001
0000
0000
0011
0000
0000
0010
0000
0000
0000
0000
0000
0100
0000
0000
1000
0100
1000
0100
0000
0000
0000
0000
0000
,
0010
0000
0000
0000
1010
0000
0000
0010
0000
0000
0100
0000
0001
0000
0200
0000
,
0320
1030
1000
0010
1000
0001
0100
0010
,
1000
0000
0000
0000
1010
0000
0000
0100
0000
0000
0001
0000
0001
0000
0000
0000
,
1000
0000
0000
1010
0000
0000
0010
0000
0000
0000
0000
0000
0100
0000
0000
0001
0100
0001
0200
0000
0000
0300
0000
0000
,
0120
0000
0030
1001
0000
0000
0200
0000
0002
0000
0303
1100
0000
0000
0020
0030
,
0210
0000
0300
0011
0000
0000
2000
0000
0200
0000
3300
0101
0000
0000
2000
0000
,
3010
0000
0010
0100
0000
0000
0001
0000
0100
0000
0100
0001
0000
0000
1000
0000
,
0010
1000
0010
1000
0001
0100
0001
0100
0010
1000
0010
0100
0001
1000
0010
0000
,
0100
0000
0000
0000
0001
0000
0000
0100
0000
0000
0010
0000
1000
0000
0010
0000
,
1000
0000
0000
0000
0100
0000
0000
0010
0000
0000
0001
0000
0100
0000
0001
0000
,
0100
0000
0000
0000
0010
0000
0000
1000
0000
0000
0100
0000
0001
0000
0100
0000
,
1000
0000
0001
0000
1000
0000
0100
0010
0000
0000
0001
0000
0001
0000
0100
0000
,
0011
0000
0100
0010
1000
0100
0010
0001
,
0110
0000
0001
0010
0100
0010
0001
1000
,
1010
0000
0010
1000
0010
0100
1000
0100
,
0010
0000
1000
0000
0001
0000
0010
0100
0000
0000
0010
0000
0000
0000
0001
0000
,
0100
0000
0000
0010
1000
0000
0100
0000
0010
0000
0001
0000
0100
0000
0010
0000
,
1000
0000
0000
0010
0100
0000
0010
0000
1000
0000
0001
0000
0100
0000
0010
0000
,
0100
0000
0000
0001
1000
0000
0001
0000
0010
0000
0100
0000
1000
0000
0001
0000
,
0100
0000
0000
0010
0100
0000
0010
1000
0000
0000
0010
0000
0100
0000
0001
0000
,
1000
0000
0000
0001
0100
0000
0010
0000
0100
0000
0000
0010
1000
0000
0001
0000
,
0100
0000
0000
0001
0010
0000
0100
0000
1000
0000
0000
0100
0010
0000
0001
0000
,
1100
0000
0000
0010
0001
0000
0001
0000
1001
0000
0000
1000
0010
0000
0010
0000
,
0120
0000
0000
0000
0000
0000
1030
0000
0001
0000
0010
0000
0001
0100
0010
0000
,
1010
0000
0011
0000
0101
0001
1001
0000
,
0110
0110
0010
1010
1000
1100
1100
0100
,
0110
0000
1001
0000
0101
0100
0110
0000
,
0101
0000
0000
0100
0000
0000
010M
0000
0000
0000
0000
0000
1100
0000
0000
1000
0100
1000
0100
0000
0000
0000
0000
0000
,
1001
0000
0011
0000
0110
0010
1010
0000
,
0101
0101
0100
0110
0010
1010
1010
1000
,
1100
0000
1001
0000
1010
1000
10M0
0000
,
0001
0000
0000
0001
0000
0000
0001
0000
0000
000M
0000
0000
0101
0000
0000
0100
0001
0100
0002
0000
0000
0003
0000
0000
,
0010
0000
0000
0010
0001
0000
0000
0010
0000
0000
0200
0000
0310
0000
0002
0000
,
0103
0000
0010
1000
0100
0000
1000
0000
0001
0000
0010
0001
0100
0000
0010
0000
,
1000
0000
0000
1000
0010
0000
0000
0100
0000
0000
0001
0000
1000
0000
0000
0000
,
0010
0000
0000
1000
0000
0000
0010
0000
0000
0000
0000
0000
0100
0000
0000
0001
0100
0001
1000
0000
0000
0000
0000
0000
,
0010
0000
0000
0100
0010
0000
0000
1000
0000
0000
0020
0000
1030
0000
0200
0000
,
0310
0000
0001
0010
0001
0000
0010
0000
0100
0000
1000
0100
1000
0000
0100
0000
,
0010
0000
0000
0001
0100
0000
0000
0010
0000
0000
1000
0000
0100
0000
0000
0000
,
0001
0000
0000
1000
0000
0000
0010
0000
0000
0000
0000
0000
0100
0000
0000
0010
0100
0010
2000
0000
0000
3000
0000
0000
,
0110
0000
0000
0100
0000
0000
1010
0000
0100
0000
0000
0110
0000
0000
0100
0000
,
0011
0000
0000
0010
0000
0000
0110
0000
0010
0000
0000
1001
0000
0000
0010
0000
,
1100
0000
1000
0001
1000
0000
0001
0000
0011
0000
0010
0100
0010
0000
0001
0000
,
1000
0010
0100
0001
1000
0010
0100
0001
0100
0010
0100
0001
1000
0010
0100
0000
,
0002
0000
0203
0000
0320
0000
2030
0000
0000
3010
0100
0000
0010
0000
1000
0000
,
0020
0000
2030
0000
3002
0000
0203
0000
0000
0301
1000
0000
0001
0000
0010
0000
;

//---------------dance-single - ----------------
#NOTES:
     dance-single:
     :
     Hard:
     7:
     0.384,0.410,0.121,0.009,0.135,275.000,13.000,1.000,0.000,0.000:
0000
0000
0000
0000
,
1010
0000
0000
1000
0000
0000
1000
0000
0010
0000
0000
0010
0000
0000
0010
0000
,
0101
0000
0000
0100
0000
0000
0100
0000
0010
0000
0000
0010
0000
0000
0010
0000
,
1010
0010
0101
0100
,
1000
0000
0010
0000
1000
0000
0010
0000
1000
0000
0010
0000
1000
0100
0010
0000
,
1000
0000
0000
0000
0010
0000
0000
0100
0000
0000
0010
0000
0100
0000
0000
0000
,
0000
0001
1000
0010
0100
0001
0010
1000
,
0100
0000
0000
0000
0010
0000
0000
1000
0000
0000
0010
0000
0100
0000
0000
0000
,
0010
1000
0010
0000
0100
0000
1010
0000
,
0010
0000
0000
0000
1000
0000
0000
0010
0000
0000
0100
0000
0010
0000
0000
0000
,
0000
0001
0100
0010
1000
0001
0100
0010
,
1000
0000
0000
0000
0010
0000
0000
0100
0000
0000
0010
0000
1000
0000
0000
0000
,
0001
0100
0010
0000
1000
0000
0110
0000
,
1000
0000
0000
0010
0000
0000
1000
0000
0001
0000
0000
0010
0000
0000
0001
0000
,
1010
0000
0000
0010
0000
0000
1000
0000
0010
0000
0000
0100
0000
0000
0001
0000
,
1001
0000
0000
0100
0010
0000
0000
0000
0110
0000
0000
0010
0100
0000
0000
0000
,
0010
0000
0010
0000
0100
0000
0100
0000
0010
0000
0010
0000
0001
1000
0010
0000
,
1000
0000
0000
0010
0100
0001
1000
0010
,
0000
1000
0000
0010
0000
0100
0000
0010
,
0000
0000
0000
1000
0010
0100
0010
0100
,
0000
0000
0000
0000
0000
1000
0010
0100
,
0000
0000
0000
1000
0010
0100
0010
1000
,
0000
0000
0100
0010
0000
1000
0000
0010
,
0000
0000
0000
0000
1000
0000
0000
0001
,
0000
1000
0000
0000
0000
0000
0000
0100
,
0010
0000
0000
0100
0000
0001
0100
0010
,
0000
0000
1000
0010
0000
0100
0000
0010
,
0000
0000
0000
0000
1000
0100
0010
1000
,
0000
0000
0000
0000
0000
0010
0100
0001
,
1000
0000
0000
0000
0000
0100
0010
1000
,
0000
0010
0000
0100
0000
0001
1000
0010
,
0100
0000
0000
0001
1000
0000
0000
0100
,
0010
0000
0000
1000
0001
0000
0000
0000
,
1000
0000
0000
0000
0001
0000
0000
0100
0000
0000
0010
0000
1000
0000
0000
0000
,
0000
0001
1000
0010
0100
0001
1000
0010
,
0100
0000
0000
0000
0010
0000
0000
1000
0000
0000
0010
0000
0100
0000
0000
0000
,
0001
1000
0010
0000
1000
0000
0110
0000
,
0001
0000
0000
0000
1000
0000
0000
0010
0000
0000
0100
0000
0010
0000
0000
0000
,
0000
1000
0001
0100
0010
1000
0010
0100
,
0010
0000
0000
0000
1000
0000
0000
0010
0000
0000
0100
0000
0010
0000
0000
0000
,
1000
1000
1000
0000
0001
0000
0110
0000
,
0010
0000
0000
0000
1000
0000
0000
0010
0000
0000
0100
0000
0010
0000
0000
0000
,
0000
0010
0100
0001
1000
0010
0100
0010
,
1000
0000
0000
0000
0010
0000
0000
0100
0000
0000
0001
0000
1000
0000
0000
0000
,
0010
1000
0010
0000
0100
0000
0110
0000
,
1000
0000
0000
0000
0010
0000
0000
0100
0000
0000
0010
0000
1000
0000
0000
0000
,
0000
0100
1000
0010
0100
0001
1000
0010
,
0100
0000
0000
0000
0010
0000
0000
1000
0000
0000
0010
0000
0100
0000
0000
0000
,
0001
1000
0010
0000
0100
0000
1001
0000
,
0010
0000
0000
0100
0000
0000
0010
0000
0100
0000
0000
0010
0000
0000
0100
0000
,
0010
0000
0000
1000
0000
0000
0010
0000
0100
0000
0000
0001
0000
0000
0100
0000
,
0010
0000
1000
0010
0001
0000
0010
0100
,
1000
0000
0010
0000
0010
0000
0001
0000
1000
0000
0100
0000
1000
0010
0100
0000
,
0020
0000
0000
0000
,
0000
0000
0000
0000
,
0030
0000
0000
0000
;

//---------------dance-single - ----------------
#NOTES:
     dance-single:
     :
     Medium:
     5:
     0.392,0.370,0.130,0.158,0.000,264.000,14.000,17.000,0.000,0.000:
0000
0000
0000
0000
,
1000
0000
0000
0010
0100
0000
0000
0010
,
0100
0000
0000
0100
0001
0000
0000
0100
,
0001
1000
0010
0100
,
0001
0010
0100
0010
0100
0000
0101
0000
,
0100
0000
0010
0000
1000
0100
0100
0000
,
0010
0001
0100
0000
0010
1000
0001
0100
,
0001
0000
0100
0000
0001
0100
0100
0000
,
0010
0010
0020
0000
0230
0300
0100
0000
,
0001
0000
1001
0000
1000
1000
0010
0000
,
0100
0001
0100
0000
0010
1000
0010
0100
,
0001
0000
1100
0000
0100
0100
0010
0000
,
0001
1000
0002
0000
2003
3000
1000
0000
,
0010
0000
0100
0010
0100
0000
0001
0000
,
1010
0000
0100
0001
0100
0000
0010
0000
,
0110
0001
1010
0100
,
0001
0100
0001
1000
0200
0010
0310
0000
,
0002
0000
1003
0000
0100
0010
0100
0000
,
2000
0000
3100
0000
1000
0010
0100
0000
,
0020
0000
1030
0000
0001
0100
0010
0100
,
0020
2030
3010
1000
,
0020
0000
1030
0000
0001
0010
0100
0000
,
2000
0000
3010
0000
0100
0001
1000
0000
,
0200
0000
0310
0000
0001
1000
0100
0000
,
1000
0010
1000
0000
0100
0000
0011
0000
,
0000
0010
0100
0000
0000
1000
0001
0000
,
0000
0010
0100
0000
0000
1000
0001
0000
,
0000
0010
0100
0000
1000
0001
1000
0010
,
0200
0010
0310
1000
,
0000
0001
0100
0000
0000
0010
1000
0000
,
0000
0001
0100
0000
0000
0010
1000
0100
,
0010
0001
0100
0000
0010
1000
0100
0000
,
2000
0000
3002
0000
0103
0010
0100
0010
,
1000
0000
0001
0000
0100
0100
0010
0000
,
1000
0010
0000
1000
0000
0010
1000
0000
,
0001
0000
0100
0000
0010
0010
0010
0000
,
1000
0001
0100
0000
1010
0000
0000
0000
,
1000
0000
0001
0000
0100
0010
0100
0000
,
0001
1000
0000
0001
0000
1000
0001
0000
,
0100
0000
0010
0000
1000
0001
0100
0000
,
0001
0001
0001
0000
0101
0000
0000
0000
,
1000
0000
0001
0000
1000
0010
1000
0000
,
0001
1000
0000
0010
0000
1000
0010
0100
,
0010
0000
0100
0000
0010
1000
0010
0000
,
1000
0001
0100
0000
0010
0200
0310
0000
,
0100
0000
0001
0000
1000
0100
1000
0000
,
0010
0100
0000
0001
0000
0100
0010
1000
,
0100
0000
0010
0000
0001
0010
0001
0000
,
1001
1010
1001
0000
,
0001
0000
0000
0010
0100
0000
1100
0000
,
0100
0000
0000
0010
0001
0000
0101
0000
,
0100
0000
0001
0010
0001
0000
0100
0010
,
1000
0100
0010
0001
1000
0100
0010
0001
,
1000
0000
0000
0000
;

//---------------dance-single - ----------------
#NOTES:
     dance-single:
     :
     Easy:
     4:
     0.237,0.352,0.186,0.140,0.000,143.000,20.000,15.000,0.000,0.000:
0000
0000
0000
0000
,
1001
0000
0010
0000
,
1001
0000
0100
0000
,
1001
0000
0110
0000
,
0201
0000
0000
0301
,
1000
0010
0100
0000
,
0001
0100
0010
0100
,
0001
0000
1000
0000
,
0010
0010
0110
0000
,
0100
0001
0100
0000
,
0010
1000
0010
0100
,
0010
0000
1000
0000
,
0100
0100
1100
0000
,
2000
0000
0001
3000
,
0200
0000
0001
0000
,
0310
0001
0100
0010
,
2000
0000
0000
3001
,
0100
0000
0010
0000
,
1000
0000
0001
0000
,
0001
0000
1000
0000
,
0001
0001
0001
0000
,
0100
0000
0010
0000
,
1000
0000
0100
0000
,
0010
0000
0001
0000
,
1000
1000
1000
0000
,
0010
0000
0100
0000
,
0001
0000
1000
0000
,
0010
0000
0100
0001
,
0100
0100
0100
0010
,
1000
0000
0001
0000
,
0100
0000
0010
0000
,
1100
0000
0110
0000
,
0021
0001
0001
0001
,
0031
1000
0020
0130
,
1001
1001
1001
1001
,
0001
0010
0200
0310
,
0002
1000
1003
0000
,
0100
0010
0200
1300
,
0101
0101
0101
0101
,
0100
0010
2000
3001
,
2000
0010
3010
0000
,
0100
0000
0001
0000
,
1000
0001
0100
0010
,
1000
0000
0010
0000
,
0100
0001
1000
0000
,
0010
0000
1000
0000
,
0001
0010
0100
1000
,
0010
0000
0100
0000
,
0001
1000
0010
0000
,
2010
0000
0001
3000
,
0120
0000
1000
0000
,
1030
0001
0100
0001
,
0200
0000
0000
0000
,
0020
0000
0000
0000
,
0330
0000
0000
0000
;

//---------------dance-single - ----------------
#NOTES:
     dance-single:
     :
     Beginner:
     1:
     0.114,0.169,0.037,0.056,0.000,76.000,4.000,6.000,0.000,0.000:

0000
0000
0000
0000
,
0000
0000
0000
0000
,
0000
0000
0000
0000
,
0100
0000
0010
0000
,
2000
0000
0000
3000
,
0010
0000
0010
0000
,
0100
0000
0001
0000
,
1000
0000
0010
0000
,
0100
0100
0100
0000
,
0010
0000
1000
0000
,
0001
0000
1000
0000
,
0001
0000
0100
0000
,
0010
0010
0010
0000
,
2000
0000
0000
0000
,
3020
0000
0000
0000
,
0130
0000
0010
0000
,
2000
0000
0000
3000
,
0001
0000
0000
0000
,
0100
0000
0000
0000
,
0010
0000
0000
0000
,
1000
0000
0100
0000
,
1000
0000
0000
0000
,
0001
0000
0000
0000
,
0100
0000
0000
0000
,
0010
0000
1000
0000
,
0010
0000
0000
0000
,
0100
0000
0000
0000
,
0001
0000
0000
0000
,
1000
0000
0000
0000
,
0010
0000
1000
0000
,
0001
0000
1000
0000
,
0110
0000
0000
0000
,
0220
0000
0000
0330
,
1000
0000
0001
0000
,
0100
0000
0010
0000
,
1000
0000
0010
0000
,
1000
0000
0001
0000
,
1000
0000
0010
0000
,
0100
0000
0001
0000
,
1000
0000
0010
0000
,
0100
0000
0001
0000
,
1000
0000
0000
0000
,
0001
0000
0000
0000
,
0100
0000
0000
0000
,
0010
0000
1000
0000
,
0001
0000
0000
0000
,
0100
0000
0000
0000
,
0010
0000
0000
0000
,
0100
0000
0100
0000
,
0001
0000
0000
0000
,
1001
0000
0000
0000
,
0100
0000
0000
0000
,
0101
0000
0000
0000
;
